<?xml version="1.0" standalone="no"?>
<!DOCTYPE svg PUBLIC "-//W3C//DTD SVG 1.1//EN" "http://www.w3.org/Graphics/SVG/1.1/DTD/svg11.dtd" >
<svg xmlns="http://www.w3.org/2000/svg" xmlns:xlink="http://www.w3.org/1999/xlink" version="1.1">
<metadata></metadata>
<defs>
<font id="denmark" horiz-adv-x="512" >
<font-face units-per-em="2048" ascent="1638" descent="-410" />
<missing-glyph horiz-adv-x="804" />
<glyph unicode="&#xd;" horiz-adv-x="804" />
<glyph unicode=" "  horiz-adv-x="804" />
<glyph unicode="&#x09;" horiz-adv-x="804" />
<glyph unicode="&#xa0;" horiz-adv-x="804" />
<glyph unicode="!" d="M119 -10v256h293v-256h-293zM123 377v1057h289v-1057h-289z" />
<glyph unicode="&#x22;" horiz-adv-x="722" d="M117 956v478h215v-478h-215zM432 956v478h215l-2 -478h-213z" />
<glyph unicode="#" horiz-adv-x="1163" d="M76 426l26 119h228l73 344h-229l25 119h229l88 411h119l-88 -411h192l86 411h121l-88 -411h229l-24 -119h-229l-74 -344h229l-26 -119h-228l-88 -412h-119l86 412h-190l-88 -412h-119l88 412h-229zM451 545h190l74 344h-193z" />
<glyph unicode="$" horiz-adv-x="1570" d="M63 985q0 201 105 309q129 135 416 136h127l2 143h125v-148h563l-2 -268h-561v-338h194q205 0 332 -123q119 -114 119 -278q0 -205 -107.5 -313.5t-302.5 -108.5h-223v-139l-125 -2v141h-575v242h571v331h-205q-197 0 -315 95q-137 109 -138 321zM438 1001 q0 -76 52.5 -128t127.5 -52h103v340h-103q-74 0 -127 -45t-53 -115zM850 240h80q66 0 116 46t50 120q0 68 -52.5 115.5t-119.5 47.5h-74v-329z" />
<glyph unicode="%" horiz-adv-x="1972" d="M76 1071q0 186 121.5 298t296.5 112q205 0 313 -110.5t108 -309.5q0 -195 -84 -301q-100 -129 -323 -129q-203 0 -313 106q-119 113 -119 334zM272 1061q0 -135 61.5 -211t174.5 -76q111 0 166 88q47 74 47 193q0 127 -43 196q-57 90 -189 90q-109 0 -163 -82.5 t-54 -197.5zM598 -49l600 1515h123l-586 -1515h-137zM1034 356q0 195 103 312q115 131 329 131q221 0 328 -125q94 -110 94 -309q0 -203 -76 -295q-94 -117 -339 -117q-199 0 -319 113.5t-120 289.5zM1231 373q0 -113 62.5 -194t172.5 -81q100 0 160 70t60 209 q0 125 -41 192q-53 86 -177 86q-125 0 -186 -92q-51 -76 -51 -190z" />
<glyph unicode="&#x26;" horiz-adv-x="1742" d="M80 1071q0 147 99.5 255t244.5 108h631v-263h-445q-68 0 -121 -43t-53 -104q0 -80 51.5 -137.5t126.5 -57.5h99v-245h-109q-68 0 -115 -43t-47 -117q-8 -96 82 -145q66 -35 195 -50q129 -10 251 99.5t122 257.5l-215 -2v254h755v-252l-231 -4q-25 -260 -203 -424 q-203 -186 -553 -187q-301 0 -436 119q-115 100 -115 285q0 109 46 186.5t143 138.5q-106 57 -154.5 149.5t-48.5 221.5z" />
<glyph unicode="'" horiz-adv-x="448" d="M117 956v478h215v-478h-215z" />
<glyph unicode="(" horiz-adv-x="718" d="M82 739q0 242 86 475q74 197 201 367h260q-129 -223 -180.5 -408.5t-51.5 -441.5q0 -264 51.5 -451.5t184.5 -414.5h-254q-137 178 -213 387q-84 231 -84 487z" />
<glyph unicode=")" horiz-adv-x="765" d="M113 -123q133 227 184 415.5t51 450.5q0 260 -49 440.5t-180 409.5h258q127 -168 201 -366q86 -231 86 -477q0 -256 -82 -486q-74 -207 -213 -387h-256z" />
<glyph unicode="*" horiz-adv-x="550" d="M59 1276l41 96l125 -41v115h109v-123l117 45l43 -92l-119 -51l65 -92l-82 -62l-79 98l-80 -94l-82 62l69 92z" />
<glyph unicode="+" horiz-adv-x="1200" d="M63 539v270h400v410h276v-410h398v-270h-400v-396h-274v396h-400z" />
<glyph unicode="," d="M125 0v256h276l-4 -193q0 -84 -53 -161q-25 -37 -46.5 -60.5t-55.5 -44.5v203h-117z" />
<glyph unicode="-" horiz-adv-x="929" d="M92 539v280h739l-2 -280h-737z" />
<glyph unicode="." d="M109 0v260h288v-260h-288z" />
<glyph unicode="/" horiz-adv-x="1198" d="M113 -27l866 1493h119l-865 -1491z" />
<glyph unicode="0" horiz-adv-x="1701" d="M61 735q0 334 187 520q203 203 606 203q444 0 627 -194q159 -172 159 -545q0 -418 -231 -598q-188 -145 -549 -146q-399 0 -590 168q-209 184 -209 592zM422 727q0 -231 74 -342q102 -154 378 -154q233 0 328 150q74 117 74 346q0 211 -100 336q-113 139 -334 139 q-217 0 -328 -149q-92 -125 -92 -326z" />
<glyph unicode="1" horiz-adv-x="565" d="M94 0v1434h385v-1434h-385z" />
<glyph unicode="2" horiz-adv-x="1734" d="M86 0v358q0 137 23 211q31 100 113.5 169t165.5 86.5t228 17.5h371q94 0 156 35q74 41 74 120q0 84 -71 131.5t-165 47.5h-872v258h1085q233 0 354 -136q107 -118 107 -315q0 -201 -166 -303q-145 -90 -387 -90h-387q-61 0 -100.5 -13.5t-75.5 -52.5q-61 -66 -62 -143 v-131h1135v-250h-1526z" />
<glyph unicode="3" horiz-adv-x="1437" d="M88 1180v254h834q205 0 319 -121q102 -109 102 -273q0 -115 -51 -189.5t-151 -127.5q102 -51 157.5 -139t55.5 -199q0 -31 -6 -66q-25 -150 -146 -234.5t-284 -84.5h-826v250l717 2q70 0 122 44t58 114q0 78 -53 131t-133 53l-563 2l-7 250h551q88 0 143.5 46t55.5 130 q0 158 -217 158h-678z" />
<glyph unicode="4" horiz-adv-x="1714" d="M90 250v293l883 891h430v-928h201v-254h-203v-252h-328v250h-983zM459 496h610v637z" />
<glyph unicode="5" horiz-adv-x="1456" d="M111 0v266h714q80 0 137.5 55.5t49.5 137.5q0 61 -49 104q-57 49 -156 49h-696v822h1181v-250h-848l-2 -320h502q190 0 311 -114.5t121 -298.5q0 -223 -178 -345q-156 -106 -391 -106h-696z" />
<glyph unicode="6" horiz-adv-x="1587" d="M78 612q0 324 143 549q172 272 494 273h719l4 -267h-584q-129 0 -170 -8q-82 -16 -141 -78q-41 -43 -65.5 -100t-24.5 -100l-7 -60h648q193 0 312.5 -111.5t119.5 -279.5q0 -27 -2 -41q-20 -231 -228 -338q-174 -90 -458 -90q-360 0 -547 141q-213 162 -213 510zM446 575 q0 -113 40 -193.5t128 -127.5t254 -47q125 0 199 37q90 45 90 139q6 66 -33 123q-47 70 -127 69h-551z" />
<glyph unicode="7" horiz-adv-x="1486" d="M57 0l1000 1176h-991v258h1374v-265l-971 -1169h-412z" />
<glyph unicode="8" horiz-adv-x="1597" d="M57 352q0 127 66.5 218.5t185.5 131.5q-123 41 -187.5 136.5t-64.5 226.5q0 160 129 264.5t306 104.5h563q199 0 331 -104.5t132 -276.5q0 -129 -68 -223.5t-190 -135.5q117 -41 180 -130t63 -218q0 -162 -119.5 -254t-306.5 -92h-592q-174 0 -297 94q-131 100 -131 258z M416 1008q0 -72 47 -127.5t115 -55.5h411q68 0 115 49t47 117q0 74 -45 131.5t-115 57.5h-399q-70 0 -123 -53.5t-53 -118.5zM422 422q0 -76 50 -128t122 -52h373q78 0 131 43.5t53 117.5q0 76 -53.5 129.5t-130.5 53.5h-387q-66 0 -112 -48.5t-46 -115.5z" />
<glyph unicode="9" horiz-adv-x="1601" d="M74 1008q0 27 2 39q20 231 225 339q174 92 457 93q354 0 536 -144q199 -158 230 -512q0 -326 -144 -551q-172 -272 -493 -272h-727l4 264h581h48q94 0 141 12q68 18 123 74q43 43 66.5 101.5t23.5 101.5l8 59h-649q-195 0 -313.5 113t-118.5 283zM442 1053q0 -66 37 -121 q47 -70 125 -70h551q0 113 -40 195t-126 125q-41 20 -110.5 34.5t-147.5 14.5q-127 0 -199 -37q-90 -45 -90 -141z" />
<glyph unicode=":" d="M115 0v260h288v-260h-288zM115 627v260h288v-260h-288z" />
<glyph unicode=";" d="M119 639v260h289v-260h-289zM125 0v256h270l-4 -193q0 -92 -47 -161q-25 -37 -46.5 -60.5t-55.5 -44.5v203h-117z" />
<glyph unicode="&#x3c;" horiz-adv-x="1165" d="M76 416v180l1014 430v-215l-725 -305l725 -307v-215z" />
<glyph unicode="=" horiz-adv-x="1200" d="M66 348v270h1069v-270h-1069zM66 735v269h1069v-269h-1069z" />
<glyph unicode="&#x3e;" horiz-adv-x="1165" d="M76 -16v215l725 307l-725 305v215l1014 -430v-180z" />
<glyph unicode="?" horiz-adv-x="1570" d="M94 1200v234h998q174 0 293.5 -128.5t119.5 -304.5q0 -188 -143 -296q-133 -100 -344 -101h-326q-57 0 -96 -15.5t-76 -56.5q-27 -33 -38 -66.5t-11 -80.5v-37h-338v78q0 96 23.5 166t85.5 135q72 76 170 100q68 16 211 17h319q72 0 119 45t47 117q0 80 -57.5 137 t-137.5 57h-819zM137 0v236h330v-236h-330z" />
<glyph unicode="@" horiz-adv-x="1568" d="M113 711q0 215 94 383t272 272q68 37 134.5 59.5t129 29.5t109.5 7q266 0 440 -172t174 -436q0 -65 -12 -137q-29 -152 -104.5 -258.5t-173.5 -145.5q-18 -8 -48 -14t-49 -6q-68 0 -113.5 38t-52.5 95v29q-16 -37 -39 -68q-72 -86 -167 -86q-47 0 -95 21 q-160 72 -159 356l8 70q18 123 70.5 217t127.5 147q35 27 81 41t81 14q131 0 178 -118l17 102h100l-72 -418l-24 -166q-6 -43 -6 -69q0 -35 8 -54q6 -27 27.5 -42t50.5 -15q8 0 28.5 6t44 24.5t60.5 60.5t65.5 108.5t44.5 150.5q8 51 9 111q0 221 -140.5 361.5t-359.5 140.5 q-43 0 -92 -7q-221 -33 -365.5 -210t-144.5 -426v-35q4 -25 4 -37q0 -55 14.5 -103.5t42.5 -109.5q76 -166 214.5 -258t303.5 -92q113 0 227.5 46t215.5 136q31 27 55 55q18 20 51 64l29 -101l-47 -57q-231 -246 -541 -246q-276 0 -474 181.5t-228 467.5q-2 23 -3 43.5 t-1 49.5zM578 582q0 -90 31.5 -136.5t88.5 -54.5q61 -8 107.5 38t91.5 171q6 14 17.5 61.5t17.5 77.5l8 35l10 68q2 10 4 35.5t2 54.5v24q-6 53 -41.5 87t-87.5 34q-25 0 -53 -12q-53 -20 -89 -67.5t-71 -149.5q-4 -14 -10 -40t-13 -66t-10 -75.5t-3 -84.5z" />
<glyph unicode="A" horiz-adv-x="1435" d="M-57 0l587 1434h351l616 -1434h-358l-121 328h-592l-129 -328h-354zM524 578h383l-194 503z" />
<glyph unicode="B" horiz-adv-x="1486" d="M102 0v1432h893q158 0 273.5 -92.5t132.5 -241.5q2 -12 2 -25v-24q0 -115 -55.5 -202t-165.5 -136q113 -41 177 -125t64 -199q0 -162 -114.5 -274.5t-276.5 -112.5h-930zM410 244h493q66 0 108 45.5t42 111.5q0 72 -45 124.5t-115 52.5h-483v-334zM418 819l471 -2 q63 0 104 48t41 116q0 74 -46 127t-118 53h-452v-342z" />
<glyph unicode="C" horiz-adv-x="1337" d="M61 700q0 231 86 410q94 197 269 268q135 55 276 56h574v-275h-596q-145 0 -211 -158q-51 -123 -51 -321q0 -168 65 -285q76 -137 213 -137l584 2v-260h-633q-96 0 -191 27q-182 55 -288 254q-96 180 -97 419z" />
<glyph unicode="D" horiz-adv-x="1511" d="M102 0v1434h729q129 -1 256 -48q172 -66 273 -268q92 -186 92 -422q0 -252 -102 -438q-111 -205 -306 -244q-76 -14 -170 -14h-772zM436 248l426 -2q139 0 207 145q55 119 55 299q0 199 -59 326q-76 160 -229 160l-400 -2v-926z" />
<glyph unicode="E" horiz-adv-x="1476" d="M63 711q0 207 82 374q90 182 250 267q88 45 169 63.5t186 18.5h647v-254h-598q-80 0 -134.5 -21.5t-107.5 -77t-73.5 -107.5t-20.5 -130h942v-254h-938q0 -70 18.5 -122t66.5 -107.5t100.5 -84t123.5 -28.5h629v-248h-698q-162 0 -312 74q-162 80 -247 254t-85 383z" />
<glyph unicode="F" horiz-adv-x="1511" d="M102 0v881q0 82 31 180q59 178 221 266q193 106 625 107h465v-240h-486q-195 0 -274 -20q-135 -35 -195 -150q-43 -84 -43 -188h998v-240h-989v-596h-353z" />
<glyph unicode="G" horiz-adv-x="1734" d="M61 717q0 293 177 500q184 217 462 217h889v-265h-805q-160 0 -256 -139q-88 -127 -88 -309q0 -188 82 -324q93 -153 252 -153h2h481v362h-491v238h840v-844h-955q-260 0 -430 221q-160 209 -160 496z" />
<glyph unicode="H" horiz-adv-x="1560" d="M102 0v1434h344v-594h656v594h354v-1434h-358v582h-652v-582h-344z" />
<glyph unicode="I" horiz-adv-x="589" d="M102 0v1434h383v-1434h-383z" />
<glyph unicode="J" horiz-adv-x="1302" d="M16 0v233h459q106 0 162 17q76 23 127 88q37 45 51 91t14 108v897h369v-910q0 -82 -9 -132t-40 -113q-74 -160 -250 -226q-141 -53 -367 -53h-516z" />
<glyph unicode="K" horiz-adv-x="1456" d="M102 0v1434h318v-1434h-318zM430 729l565 705h445l-637 -707l616 -727h-444z" />
<glyph unicode="L" horiz-adv-x="1359" d="M102 524v910h369v-897q0 -61 14.5 -107.5t51.5 -91.5q51 -66 118.5 -86.5t171.5 -20.5h459v-231h-518q-227 0 -365 51q-174 66 -249 225q-29 61 -40.5 118t-11.5 130z" />
<glyph unicode="M" horiz-adv-x="2009" d="M102 0v1434h480l419 -1135l404 1135h498v-1434h-310v1096l-405 -1096h-369l-418 1120v-1120h-299z" />
<glyph unicode="N" horiz-adv-x="1695" d="M102 0v1434h461l680 -1076v1076h348v-1434h-454l-693 1061v-1061h-342z" />
<glyph unicode="O" horiz-adv-x="1701" d="M61 735q0 334 187 520q203 203 606 203q444 0 627 -194q159 -172 159 -545q0 -418 -231 -598q-188 -145 -549 -146q-399 0 -590 168q-209 184 -209 592zM422 727q0 -231 74 -342q102 -154 378 -154q233 0 328 150q74 117 74 346q0 211 -100 336q-113 139 -334 139 q-217 0 -328 -149q-92 -125 -92 -326z" />
<glyph unicode="P" horiz-adv-x="1622" d="M102 0v1434h981q229 0 363 -158q115 -138 115 -318q0 -190 -146.5 -324t-349.5 -134h-608v-500h-355zM455 748h467q100 0 169.5 65.5t69.5 163.5q0 92 -75.5 153.5t-174.5 61.5h-456v-444z" />
<glyph unicode="Q" horiz-adv-x="1677" d="M61 707q0 371 195 561t594 190q387 0 590 -205q174 -176 174 -456q0 -203 -19 -297q-29 -143 -120 -273l245 -233h-405l-60 74q-117 -47 -209 -70t-200 -23q-369 0 -572 179q-213 188 -213 553zM422 727q0 -256 123 -375q111 -106 327 -106q197 0 292.5 120t95.5 353 q0 197 -82 319q-106 158 -332 158q-213 0 -318.5 -121t-105.5 -348z" />
<glyph unicode="R" horiz-adv-x="1572" d="M102 0v1434h1049q178 0 295 -138.5t117 -326.5q0 -150 -100.5 -254.5t-254.5 -130.5l398 -584h-404l-371 559h-385v-559h-344zM442 791h441q96 0 172 43q94 53 94 149q0 100 -75 154.5t-202 54.5h-430v-401z" />
<glyph unicode="S" horiz-adv-x="1671" d="M61 1001q0 193 134.5 313t353.5 120h969v-246h-854q-57 0 -116 -48t-59 -114q0 -74 56.5 -124t136.5 -50h465q217 0 341 -112t124 -296q0 -188 -125 -317t-318 -129l-1013 2v258h835q84 0 142 39q65 44 65 121q0 184 -258 184h-422q-182 0 -319.5 112.5t-137.5 286.5z " />
<glyph unicode="T" horiz-adv-x="1386" d="M-8 1186v244h1392v-244h-534v-1190h-332v1190h-526z" />
<glyph unicode="U" horiz-adv-x="1640" d="M102 500v934h363v-889q0 -168 121 -244q88 -55 219 -55q223 0 307 88q72 76 72 223v877h350v-949q0 -283 -225 -399q-168 -86 -482 -86q-305 0 -489 100q-236 127 -236 400z" />
<glyph unicode="V" horiz-adv-x="1597" d="M-66 1434h392l465 -1092l469 1092h391l-688 -1438h-359z" />
<glyph unicode="W" horiz-adv-x="2314" d="M-80 1434h391l320 -1072l315 1072h408l338 -1086l307 1086h395l-498 -1436h-436l-317 1014l-307 -1012h-422z" />
<glyph unicode="X" horiz-adv-x="1781" d="M109 -4l559 715l-547 723h430l328 -478l350 478h418l-551 -717l565 -717h-418l-366 479l-340 -483h-428z" />
<glyph unicode="Y" horiz-adv-x="1439" d="M-86 1434h416l372 -572l379 572h424l-631 -830v-608h-337v608z" />
<glyph unicode="Z" horiz-adv-x="1667" d="M96 1155v277l1460 2v-293l-954 -899h959v-246h-1455v250l965 909h-975z" />
<glyph unicode="[" horiz-adv-x="665" d="M125 -391v1833h491v-193h-247v-1448h247v-192h-491z" />
<glyph unicode="\" horiz-adv-x="555" d="M-66 1473h234l453 -1512h-234z" />
<glyph unicode="]" horiz-adv-x="665" d="M47 -199h248v1448h-248v193h492v-1833h-492v192z" />
<glyph unicode="^" horiz-adv-x="1165" d="M123 645l360 750h199l360 -750h-219l-239 524l-242 -524h-219z" />
<glyph unicode="_" horiz-adv-x="1110" d="M-6 -309h1110v-101h-1110v101z" />
<glyph unicode="`" horiz-adv-x="731" d="M-49 1430h338l205 -300h-222z" />
<glyph unicode="a" horiz-adv-x="1241" d="M61 305q0 139 83 230.5t208 91.5h496v57q0 27 -9.5 46.5t-29.5 45.5q-29 33 -59.5 42t-85.5 9h-531v234h455h88q150 0 223.5 -25.5t126.5 -77.5q68 -68 90.5 -147.5t22.5 -204.5v-608h-766q-129 0 -220.5 87t-91.5 220zM362 315q0 -43 35 -71.5t80 -28.5h369v209h-361 q-51 0 -87 -29.5t-36 -79.5z" />
<glyph unicode="b" horiz-adv-x="1265" d="M102 0v1434h287v-373h383q190 0 315 -162q117 -151 117 -358q0 -215 -114 -371q-125 -170 -322 -170h-666zM389 229h277q106 0 172.5 91t66.5 210q0 121 -71.5 214.5t-182.5 93.5h-262v-609z" />
<glyph unicode="c" horiz-adv-x="1114" d="M61 524q0 227 136 377q145 160 399 160h444v-246h-403q-113 0 -192.5 -90t-79.5 -207q0 -119 75.5 -205t188.5 -86h411v-227h-446q-248 0 -390.5 144.5t-142.5 379.5z" />
<glyph unicode="d" horiz-adv-x="1265" d="M61 547q0 207 131.5 360.5t327.5 153.5h367v373h276v-1434h-665q-193 0 -320 172q-117 160 -117 375zM360 539q0 -121 66 -214.5t176 -93.5h277v605h-265q-111 0 -182.5 -88.5t-71.5 -208.5z" />
<glyph unicode="e" horiz-adv-x="1110" d="M61 512q0 223 146.5 386t327.5 163h475v-219h-348q-66 0 -112 -11.5t-85 -44.5q-72 -61 -72 -165h615v-222h-613q0 -49 11.5 -82.5t46 -67.5t83 -45t117.5 -11h359v-199h-500q-182 0 -316.5 156.5t-134.5 361.5z" />
<glyph unicode="f" horiz-adv-x="897" d="M63 815v219h205v127q0 106 70 185q43 49 93 68.5t124 19.5h303v-220h-127q-47 0 -86 -5t-53 -27.5t-19.5 -43t-5.5 -51.5v-55h287v-213h-287v-819h-301v815h-203z" />
<glyph unicode="g" horiz-adv-x="1286" d="M61 532q0 215 134.5 372t339.5 157h649v-1026q0 -109 -18.5 -176.5t-80 -134t-131 -90t-174.5 -23.5h-610v225h514h39q35 0 55.5 5t44.5 24q16 10 37 36.5t21 45.5v49h-371q-195 0 -326 168q-123 158 -123 368zM395 504q0 -104 56 -180q72 -96 208 -97h226l-2 592h-252 q-113 0 -174.5 -89t-61.5 -226z" />
<glyph unicode="h" horiz-adv-x="1204" d="M102 0v1434h287v-373h354q88 0 141.5 -15.5t112 -67.5t81 -118t22.5 -162l-2 -698h-289v641q0 29 -2 68t-33 69.5t-62.5 39.5t-78.5 9l-244 4v-831h-287z" />
<glyph unicode="i" horiz-adv-x="491" d="M102 0v1061h287v-1061h-287zM102 1182v252h283v-252h-283z" />
<glyph unicode="j" horiz-adv-x="491" d="M-145 -166h116q51 0 90 39q27 23 34 50.5t7 76.5v1061h287v-1088q0 -164 -137 -278q-51 -43 -94 -61.5t-105 -18.5h-198v219zM106 1192v240h279v-240h-279z" />
<glyph unicode="k" horiz-adv-x="1216" d="M102 0v1434h287v-1434h-287zM403 516l443 549h399l-479 -539l481 -526h-403z" />
<glyph unicode="l" horiz-adv-x="491" d="M102 0v1434h287v-1434h-287z" />
<glyph unicode="m" horiz-adv-x="1732" d="M102 0v1061h1137q106 0 167.5 -19.5t121.5 -83.5q47 -51 72.5 -100t25.5 -106v-754h-276v666q0 39 -8.5 61.5t-33 48t-49 36.5t-57.5 11h-203v-823h-280v829h-330v-827h-287z" />
<glyph unicode="n" horiz-adv-x="1198" d="M102 0v1061h545q145 0 211 -17q102 -25 164 -108q70 -98 70 -215v-721h-285v698q0 27 -12.5 48.5t-34.5 41.5q-41 35 -94 35h-279v-823h-285z" />
<glyph unicode="o" horiz-adv-x="1349" d="M61 539q0 250 193 393q172 129 424 129q276 0 443 -138t167 -388q0 -276 -176 -424q-162 -135 -440 -136q-279 0 -432 123q-178 141 -179 441zM377 526q0 -156 84 -248t217 -92q152 0 225 97q68 88 68 254q0 129 -81 216t-220 87q-127 0 -210 -89t-83 -225z" />
<glyph unicode="p" horiz-adv-x="1239" d="M102 -387v1448h570q242 0 377 -143q129 -138 129 -363q0 -254 -132.5 -404.5t-347.5 -150.5h-309v-387h-287zM389 223h221q123 0 200 87.5t77 228.5q0 133 -85 218t-212 85h-201v-619z" />
<glyph unicode="q" horiz-adv-x="1239" d="M61 565q0 221 127 355q135 141 379 141h570v-1440h-277v379h-319q-215 0 -347.5 154.5t-132.5 410.5zM352 547q0 -141 78 -227.5t201 -86.5h227v609h-207q-127 0 -213 -80t-86 -215z" />
<glyph unicode="r" horiz-adv-x="749" d="M102 0v1061h285v-148q23 55 55.5 90t85.5 54q25 8 52.5 14t56.5 6q35 0 65 -8v-238h-317v-831h-283z" />
<glyph unicode="s" horiz-adv-x="1150" d="M57 725q0 147 66 238q76 102 223 102h676v-201h-602q-35 0 -60.5 -33.5t-25.5 -76.5q0 -47 33.5 -81t81.5 -34h317q150 0 237 -89t87 -226q0 -135 -87.5 -231.5t-220.5 -96.5h-702v192h577q61 0 103.5 31t42.5 88q0 133 -180 133h-295q-94 0 -182.5 90.5t-88.5 194.5z " />
<glyph unicode="t" horiz-adv-x="780" d="M-4 840v221h180v373h281v-373h276v-221h-276v-482q0 -66 45 -108q51 -43 135 -43h84v-207h-264q-119 0 -203 86q-49 51 -63.5 112.5t-14.5 145.5v496h-180z" />
<glyph unicode="u" horiz-adv-x="1193" d="M102 336v725h285v-703q0 -51 45 -88t96 -37h279v828h285v-1061h-545q-150 0 -211 14q-102 25 -164 107q-70 94 -70 215z" />
<glyph unicode="v" horiz-adv-x="1126" d="M-68 1061h338l283 -742l293 742h334l-459 -1061h-352z" />
<glyph unicode="w" horiz-adv-x="1718" d="M-72 1061h330l217 -727l217 727h336l207 -754l211 754h330l-351 -1063h-364l-201 704l-209 -702h-360z" />
<glyph unicode="x" horiz-adv-x="1112" d="M-18 1061h358l221 -305l217 305h365l-408 -537l395 -528h-366l-205 283l-215 -279h-358l401 518z" />
<glyph unicode="y" horiz-adv-x="1226" d="M102 367v694h299l-2 -680q0 -41 5.5 -61.5t29 -45t54 -34t75.5 -9.5h260v830h295l-2 -1106q0 -70 -28.5 -126t-75.5 -99q-72 -61 -148 -84t-182 -23h-557v221h580q39 0 73 27q47 37 47 86v41h-327q-94 0 -160 21.5t-127 82.5q-109 106 -109 265z" />
<glyph unicode="z" horiz-adv-x="1216" d="M92 0v219l606 617h-606v225h1030v-230l-604 -608h594v-223h-1020z" />
<glyph unicode="{" horiz-adv-x="776" d="M96 434v182q61 0 113 29q74 41 74 123v399q0 131 92 207q82 68 188 68h166v-176h-90q-68 0 -94 -43q-18 -31 -19 -88v-392q-12 -111 -96 -170q-57 -41 -131 -47q98 -6 164 -73q53 -55 63 -146v-391q0 -61 17 -88q27 -43 96 -43h90v-176h-166q-106 0 -186 65 q-94 78 -94 207v400q0 82 -72 122q-53 31 -115 31z" />
<glyph unicode="|" horiz-adv-x="559" d="M168 -39v1512h223v-1512h-223z" />
<glyph unicode="}" horiz-adv-x="776" d="M47 -215h90q68 0 94 43q18 31 19 88v391q14 113 96 170q66 45 131 45q-78 12 -129 49q-84 59 -98 172v392q0 61 -17 88q-27 43 -96 43h-90v176h166q109 0 188 -66q92 -76 93 -209v-399q0 -80 71 -121q53 -31 115 -31v-182q-61 0 -113 -28q-74 -41 -73 -125v-400 q0 -129 -93 -205q-82 -68 -188 -67h-166v176z" />
<glyph unicode="~" horiz-adv-x="1165" d="M121 506q41 76 90 117q68 55 160 55q49 0 108 -19q39 -12 115 -47q55 -27 82 -37q84 -37 121 -36q61 0 118 67q23 29 58 78l71 -178q-57 -82 -100 -117q-68 -55 -149 -55q-51 0 -97.5 15.5t-106 49t-104.5 50.5q-63 23 -127 22q-59 0 -102 -45q-35 -37 -63 -100z" />
<glyph unicode="&#xa1;" d="M109 -383v1057h288v-1057h-288zM109 805v256h292v-256h-292z" />
<glyph unicode="&#xa2;" horiz-adv-x="1140" d="M68 539q0 207 142 357.5t347 150.5h129v178h92v-178h266l-2 -228h-264v-592h266v-219h-266v-186h-92v186h-125q-209 0 -351 154.5t-142 376.5zM381 524q0 -133 82 -215t225 -82l2 592q-127 0 -218 -83t-91 -212z" />
<glyph unicode="&#xa3;" horiz-adv-x="1474" d="M113 10v246h123v408h-123v114h123v187q0 106 30.5 184t108.5 157.5t172 105.5t239 26h478v-252h-476q-59 0 -92.5 -9.5t-72.5 -44t-54.5 -80.5t-15.5 -108v-166h479v-114h-475v-402h815v-252h-1259z" />
<glyph unicode="&#xa4;" horiz-adv-x="1167" d="M70 106l114 119q-104 129 -104 318q0 92 25.5 173t78.5 140l-114 115l100 100l121 -119q59 51 139 80t164 29q182 0 303 -109l121 119l102 -100l-116 -115q51 -57 78.5 -141t27.5 -172q0 -92 -25.5 -170t-80.5 -148l114 -119l-94 -92l-119 121q-127 -117 -311 -117 q-88 0 -169 30t-142 87l-117 -121zM233 543q0 -152 105.5 -263.5t255.5 -111.5q152 0 257 109.5t105 265.5q0 152 -106.5 262t-255.5 110q-147 0 -254 -110.5t-107 -261.5z" />
<glyph unicode="&#xa5;" horiz-adv-x="1439" d="M-86 1434h416l372 -572l379 572h424l-452 -596h180v-238h-359v-147h359v-240h-359v-217h-337v217h-373v240h373v147h-373v238h196z" />
<glyph unicode="&#xa7;" horiz-adv-x="1054" d="M63 598q0 88 52 158q43 59 127 106q-45 43 -68 88q-33 63 -33 144q0 147 99 247q109 111 284 111q160 0 260 -76q125 -94 125 -291h-241q0 154 -148 154q-63 0 -100 -34t-37 -77q0 -66 72 -106l307 -162q113 -59 162 -119q67 -81 67 -206q0 -55 -39 -127 q-53 -96 -143 -140q47 -41 76 -92q43 -76 43 -164q0 -180 -127 -284q-115 -94 -283 -95q-219 0 -325 150q-74 102 -74 223h250q8 -70 39 -108q43 -53 129 -54q57 0 92 33q45 43 45 109q0 45 -26.5 74.5t-84.5 60.5l-293 158q-109 57 -153 120q-53 76 -54 199zM289 649 q0 -41 22.5 -71.5t63.5 -53.5l299 -166q39 23 60.5 55.5t21.5 75.5q0 41 -31 72t-80 55l-276 148q-29 -10 -50 -37q-31 -41 -30 -78z" />
<glyph unicode="&#xa8;" horiz-adv-x="731" d="M14 1151v235h277v-235h-277zM442 1151v235h277v-235h-277z" />
<glyph unicode="&#xa9;" horiz-adv-x="1472" d="M-23 719q0 344 230 555q215 199 530 199t529 -197q229 -211 229 -557q0 -344 -229 -557q-215 -201 -529 -201q-315 0 -530 199q-229 213 -230 559zM143 713q0 -285 170 -463t424 -178q248 0 421 179t173 462q0 281 -176 463q-168 174 -418 174q-252 0 -423 -177.5 t-171 -459.5zM367 709q0 117 45 212t131 130q61 25 139 24h287v-137h-299q-72 0 -101.5 -70.5t-29.5 -169.5q0 -86 31.5 -145t101.5 -59l299 -2v-134h-318q-25 0 -43 3.5t-51 13.5q-90 27 -141 122t-51 212z" />
<glyph unicode="&#xaa;" horiz-adv-x="745" d="M37 942q0 90 49 149.5t125 59.5h297v37q0 31 -19.5 56.5t-39 31.5t-52.5 6h-317v152h272h47q78 0 127 -11.5t89 -55.5t54.5 -100.5t14.5 -129.5v-396h-461q-78 0 -132 56.5t-54 144.5zM41 539v147h657l-2 -147h-655zM217 948q0 -29 20.5 -47t49.5 -18h221v137h-217 q-31 0 -52.5 -19.5t-21.5 -52.5z" />
<glyph unicode="&#xac;" horiz-adv-x="1519" d="M33 496v118h1415v-614h-119v496h-1296z" />
<glyph unicode="&#xad;" horiz-adv-x="929" d="M92 539v280h739l-2 -280h-737z" />
<glyph unicode="&#xae;" horiz-adv-x="1472" d="M-23 717q0 344 230 557q215 199 530 199t529 -199q227 -211 227 -557t-227 -557q-213 -199 -529 -199q-315 0 -530 199q-229 213 -230 557zM143 717q0 -281 172 -460t422 -179q246 0 419 179t173 460t-176 463q-168 174 -416 174q-252 0 -423 -177.5t-171 -459.5z M369 373v717h524q88 0 146.5 -69t58.5 -161q0 -78 -50.5 -130t-125.5 -62l198 -295h-202l-185 282h-192v-282h-172zM539 768h219q47 0 90 24.5t43 71.5q0 51 -37 78t-100 27h-215v-201z" />
<glyph unicode="&#xaf;" horiz-adv-x="731" d="M-14 1130v152h759v-152h-759z" />
<glyph unicode="&#xb0;" horiz-adv-x="851" d="M104 1139q0 129 89.5 224t216.5 95h14q135 0 229.5 -92t94.5 -227q0 -131 -94.5 -225.5t-227.5 -94.5q-129 0 -225.5 94.5t-96.5 225.5zM195 1139q0 -98 67.5 -166t163.5 -68t164.5 69t68.5 165q0 98 -69.5 165.5t-167.5 67.5h-12q-92 0 -153.5 -68.5t-61.5 -164.5z" />
<glyph unicode="&#xb1;" horiz-adv-x="1169" d="M20 0v119h1129v-119h-1129zM20 752v116h504v506h119v-506h506v-116h-506v-504h-119v504h-504z" />
<glyph unicode="&#xb4;" horiz-adv-x="731" d="M236 1130l208 300h338l-323 -300h-223z" />
<glyph unicode="&#xb5;" horiz-adv-x="1226" d="M68 -326q0 33 8 70t39 147q14 51 14 89v1085h186v-739q0 -92 55.5 -153.5t141.5 -61.5q57 0 121.5 37.5t101.5 95.5l19 26v795h186v-827q0 -70 33 -120t80 -50q43 0 65.5 26.5t38.5 98.5l6 24h47l-6 -29q-29 -111 -94.5 -168t-163.5 -57q-158 0 -190 209 q-63 -96 -153.5 -151.5t-184.5 -55.5q-59 0 -97 17.5t-112 83.5l2 -60q0 -35 4 -45l53 -194q8 -35 8 -78q0 -72 -28.5 -117t-75.5 -45q-43 0 -73.5 42t-30.5 105z" />
<glyph unicode="&#xb7;" d="M109 635v260h288v-260h-288z" />
<glyph unicode="&#xb8;" horiz-adv-x="731" d="M14 -418l47 99q53 -14 95.5 -23.5t72.5 -9.5q39 0 72 21.5t33 58.5t-24.5 55t-61.5 18t-88 -14l-45 41l118 172h132l-84 -115q16 4 32 9q10 2 33 2q68 0 119 -31q74 -43 74 -131t-76 -145.5t-197 -57.5q-61 0 -111.5 10t-140.5 41z" />
<glyph unicode="&#xba;" horiz-adv-x="808" d="M37 1094q0 164 115 256q104 84 256 84q166 0 265 -89t99 -253q0 -182 -104 -277q-96 -88 -265 -88q-168 0 -260 80q-106 92 -106 287zM41 539v147h719l-2 -147h-717zM225 1085q0 -102 51.5 -161.5t131.5 -59.5q90 0 132 61t42 167q0 86 -49.5 141t-131.5 55 q-78 0 -127 -57t-49 -146z" />
<glyph unicode="&#xbf;" horiz-adv-x="1570" d="M53 59q0 188 144 297q133 100 344 101h325q57 0 96 15t76 56q27 33 38 67t11 81v37h338v-78q0 -96 -23.5 -166t-84.5 -135q-72 -76 -170 -101q-68 -16 -211 -16h-320q-72 0 -118.5 -45t-46.5 -117q0 -80 57 -137t137 -57h819v-234h-997q-174 0 -294 128t-120 304z M1092 825v236h329v-236h-329z" />
<glyph unicode="&#xc0;" horiz-adv-x="1435" d="M-57 0l587 1434h351l616 -1434h-358l-121 328h-592l-129 -328h-354zM412 1780h338l205 -300h-222zM524 578h383l-194 503z" />
<glyph unicode="&#xc1;" horiz-adv-x="1435" d="M-57 0l587 1434h351l616 -1434h-358l-121 328h-592l-129 -328h-354zM451 1492l208 300h338l-323 -300h-223zM524 578h383l-194 503z" />
<glyph unicode="&#xc2;" horiz-adv-x="1435" d="M-57 0l587 1434h351l616 -1434h-358l-121 328h-592l-129 -328h-354zM323 1486l250 300h275l250 -300h-248l-139 168l-140 -168h-248zM524 578h383l-194 503z" />
<glyph unicode="&#xc3;" horiz-adv-x="1435" d="M-57 0l587 1434h351l616 -1434h-358l-121 328h-592l-129 -328h-354zM313 1477q10 43 21 86q18 63 45 104q35 49 82 78t118 29q31 0 144.5 -46.5t150.5 -46.5q47 0 76 31q18 20 29 62h141q-20 -141 -83.5 -217t-156.5 -76q-63 0 -149 29.5t-172 62.5q-37 0 -65.5 -26.5 t-37.5 -69.5h-143zM524 578h383l-194 503z" />
<glyph unicode="&#xc4;" horiz-adv-x="1435" d="M-57 0l587 1434h351l616 -1434h-358l-121 328h-592l-129 -328h-354zM346 1507v235h277v-235h-277zM524 578h383l-194 503zM774 1507v235h277v-235h-277z" />
<glyph unicode="&#xc5;" horiz-adv-x="1435" d="M-57 0l579 1411q-51 57 -51 131q0 92 73.5 153.5t162.5 61.5q90 0 163.5 -60.5t73.5 -154.5q0 -76 -53 -133l606 -1409h-358l-121 328h-592l-129 -328h-354zM524 578h383l-194 503zM592 1542q0 -45 33.5 -76.5t81.5 -31.5q49 0 81.5 30.5t32.5 77.5q0 43 -33.5 75 t-80.5 32q-49 0 -82 -31t-33 -76z" />
<glyph unicode="&#xc6;" horiz-adv-x="2469" d="M-125 0l1110 1434h449v-60q76 35 142 47.5t163 12.5h647v-254h-598q-80 0 -134.5 -21.5t-107.5 -77t-73.5 -107.5t-20.5 -130h942v-254h-938q0 -70 18.5 -122t66.5 -107.5t100.5 -84t123.5 -28.5h629v-248h-698q-143 0 -266 53v-53h-383l-3 328h-567l-248 -328h-354z M668 578h383v503z" />
<glyph unicode="&#xc7;" horiz-adv-x="1337" d="M61 700q0 231 86 410q94 197 269 268q135 55 276 56h574v-275h-596q-145 0 -211 -158q-51 -123 -51 -321q0 -168 65 -285q76 -137 213 -137l584 2v-260h-527l-38 -53q16 0 37.5 5t27.5 5q63 0 119 -35q74 -47 74 -133t-76 -141.5t-197 -55.5q-61 0 -111.5 10.5 t-140.5 41.5l47 98q53 -14 95.5 -23.5t72.5 -9.5q39 0 72 21.5t33 58.5t-24.5 55.5t-61.5 18.5t-88 -15l-45 41l75 111q-74 0 -168 27q-182 55 -288 254q-96 180 -97 419z" />
<glyph unicode="&#xc8;" horiz-adv-x="1476" d="M63 711q0 207 82 374q90 182 250 267q88 45 169 63.5t186 18.5h647v-254h-598q-80 0 -134.5 -21.5t-107.5 -77t-73.5 -107.5t-20.5 -130h942v-254h-938q0 -70 18.5 -122t66.5 -107.5t100.5 -84t123.5 -28.5h629v-248h-698q-162 0 -312 74q-162 80 -247 254t-85 383z M529 1780h338l205 -300h-222z" />
<glyph unicode="&#xc9;" horiz-adv-x="1476" d="M63 711q0 207 82 374q90 182 250 267q88 45 169 63.5t186 18.5h647v-254h-598q-80 0 -134.5 -21.5t-107.5 -77t-73.5 -107.5t-20.5 -130h942v-254h-938q0 -70 18.5 -122t66.5 -107.5t100.5 -84t123.5 -28.5h629v-248h-698q-162 0 -312 74q-162 80 -247 254t-85 383z M592 1492l208 300h338l-323 -300h-223z" />
<glyph unicode="&#xca;" horiz-adv-x="1476" d="M63 711q0 207 82 374q90 182 250 267q88 45 169 63.5t186 18.5h647v-254h-598q-80 0 -134.5 -21.5t-107.5 -77t-73.5 -107.5t-20.5 -130h942v-254h-938q0 -70 18.5 -122t66.5 -107.5t100.5 -84t123.5 -28.5h629v-248h-698q-162 0 -312 74q-162 80 -247 254t-85 383z M458 1486l250 300h275l250 -300h-248l-139 168l-140 -168h-248z" />
<glyph unicode="&#xcb;" horiz-adv-x="1476" d="M63 711q0 207 82 374q90 182 250 267q88 45 169 63.5t186 18.5h647v-254h-598q-80 0 -134.5 -21.5t-107.5 -77t-73.5 -107.5t-20.5 -130h942v-254h-938q0 -70 18.5 -122t66.5 -107.5t100.5 -84t123.5 -28.5h629v-248h-698q-162 0 -312 74q-162 80 -247 254t-85 383z M450 1507v235h277v-235h-277zM878 1507v235h277v-235h-277z" />
<glyph unicode="&#xcc;" horiz-adv-x="589" d="M25 1780h338l205 -300h-222zM102 0v1434h383v-1434h-383z" />
<glyph unicode="&#xcd;" horiz-adv-x="589" d="M27 1492l208 300h338l-323 -300h-223zM102 0v1434h383v-1434h-383z" />
<glyph unicode="&#xce;" horiz-adv-x="589" d="M-101 1486l250 300h275l250 -300h-248l-139 168l-140 -168h-248zM102 0v1434h383v-1434h-383z" />
<glyph unicode="&#xcf;" horiz-adv-x="589" d="M-54 1507v235h277v-235h-277zM102 0v1434h383v-1434h-383zM374 1507v235h277v-235h-277z" />
<glyph unicode="&#xd1;" horiz-adv-x="1695" d="M102 0v1434h461l680 -1076v1076h348v-1434h-454l-693 1061v-1061h-342zM455 1477q10 43 21 86q18 63 45 104q35 49 82 78t118 29q31 0 144.5 -46.5t150.5 -46.5q47 0 76 31q18 20 29 62h141q-20 -141 -83.5 -217t-156.5 -76q-63 0 -149 29.5t-172 62.5q-37 0 -65.5 -26.5 t-37.5 -69.5h-143z" />
<glyph unicode="&#xd2;" horiz-adv-x="1701" d="M61 735q0 334 187 520q203 203 606 203q444 0 627 -194q159 -172 159 -545q0 -418 -231 -598q-188 -145 -549 -146q-399 0 -590 168q-209 184 -209 592zM422 727q0 -231 74 -342q102 -154 378 -154q233 0 328 150q74 117 74 346q0 211 -100 336q-113 139 -334 139 q-217 0 -328 -149q-92 -125 -92 -326zM553 1780h338l205 -300h-222z" />
<glyph unicode="&#xd3;" horiz-adv-x="1701" d="M61 735q0 334 187 520q203 203 606 203q444 0 627 -194q159 -172 159 -545q0 -418 -231 -598q-188 -145 -549 -146q-399 0 -590 168q-209 184 -209 592zM422 727q0 -231 74 -342q102 -154 378 -154q233 0 328 150q74 117 74 346q0 211 -100 336q-113 139 -334 139 q-217 0 -328 -149q-92 -125 -92 -326zM549 1492l208 300h338l-323 -300h-223z" />
<glyph unicode="&#xd4;" horiz-adv-x="1701" d="M61 735q0 334 187 520q203 203 606 203q444 0 627 -194q159 -172 159 -545q0 -418 -231 -598q-188 -145 -549 -146q-399 0 -590 168q-209 184 -209 592zM422 727q0 -231 74 -342q102 -154 378 -154q233 0 328 150q74 117 74 346q0 211 -100 336q-113 139 -334 139 q-217 0 -328 -149q-92 -125 -92 -326zM464 1486l250 300h275l250 -300h-248l-139 168l-140 -168h-248z" />
<glyph unicode="&#xd5;" horiz-adv-x="1701" d="M61 735q0 334 187 520q203 203 606 203q444 0 627 -194q159 -172 159 -545q0 -418 -231 -598q-188 -145 -549 -146q-399 0 -590 168q-209 184 -209 592zM422 727q0 -231 74 -342q102 -154 378 -154q233 0 328 150q74 117 74 346q0 211 -100 336q-113 139 -334 139 q-217 0 -328 -149q-92 -125 -92 -326zM430 1477q10 43 21 86q18 63 45 104q35 49 82 78t118 29q31 0 144.5 -46.5t150.5 -46.5q47 0 76 31q18 20 29 62h141q-20 -141 -83.5 -217t-156.5 -76q-63 0 -149 29.5t-172 62.5q-37 0 -65.5 -26.5t-37.5 -69.5h-143z" />
<glyph unicode="&#xd6;" horiz-adv-x="1701" d="M61 735q0 334 187 520q203 203 606 203q444 0 627 -194q159 -172 159 -545q0 -418 -231 -598q-188 -145 -549 -146q-399 0 -590 168q-209 184 -209 592zM422 727q0 -231 74 -342q102 -154 378 -154q233 0 328 150q74 117 74 346q0 211 -100 336q-113 139 -334 139 q-217 0 -328 -149q-92 -125 -92 -326zM493 1507v235h277v-235h-277zM921 1507v235h277v-235h-277z" />
<glyph unicode="&#xd8;" horiz-adv-x="1701" d="M61 735q0 338 187 529q205 209 606 209q182 0 315.5 -32t223.5 -95l114 122h125l-170 -180q96 -94 137 -234t41 -335q0 -418 -231 -604q-193 -154 -549 -154q-170 0 -296 29.5t-226 95.5l-105 -111l-120 -2l155 166q-102 94 -154.5 241.5t-52.5 354.5zM422 727 q0 -111 14.5 -194.5t57.5 -151.5l663 711q-55 61 -132 93t-183 32q-217 0 -328 -156q-92 -131 -92 -334zM551 313q51 -45 132 -70.5t191 -25.5q231 0 328 158q74 121 74 352q0 172 -66 291z" />
<glyph unicode="&#xd9;" horiz-adv-x="1640" d="M102 500v934h363v-889q0 -168 121 -244q88 -55 219 -55q223 0 307 88q72 76 72 223v877h350v-949q0 -283 -225 -399q-168 -86 -482 -86q-305 0 -489 100q-236 127 -236 400zM547 1780h338l205 -300h-222z" />
<glyph unicode="&#xda;" horiz-adv-x="1640" d="M102 500v934h363v-889q0 -168 121 -244q88 -55 219 -55q223 0 307 88q72 76 72 223v877h350v-949q0 -283 -225 -399q-168 -86 -482 -86q-305 0 -489 100q-236 127 -236 400zM549 1492l208 300h338l-323 -300h-223z" />
<glyph unicode="&#xdb;" horiz-adv-x="1640" d="M102 500v934h363v-889q0 -168 121 -244q88 -55 219 -55q223 0 307 88q72 76 72 223v877h350v-949q0 -283 -225 -399q-168 -86 -482 -86q-305 0 -489 100q-236 127 -236 400zM434 1486l250 300h275l250 -300h-248l-139 168l-140 -168h-248z" />
<glyph unicode="&#xdc;" horiz-adv-x="1640" d="M102 500v934h363v-889q0 -168 121 -244q88 -55 219 -55q223 0 307 88q72 76 72 223v877h350v-949q0 -283 -225 -399q-168 -86 -482 -86q-305 0 -489 100q-236 127 -236 400zM481 1507v235h277v-235h-277zM909 1507v235h277v-235h-277z" />
<glyph unicode="&#xdf;" horiz-adv-x="1200" d="M74 657v234h86v543h645q139 0 234.5 -81.5t95.5 -222.5q0 -150 -21 -206q-31 -88 -131 -131q70 -35 107.5 -90.5t37.5 -137.5v-313q0 -106 -90 -179t-239 -73q-109 0 -183 27q-113 41 -112 127v282h223v-125q6 -90 57 -90q47 0 61.5 38t14.5 110v43q0 111 -12 159 q-23 92 -92 93l-244 -2v229l182 2q74 0 114 30.5t40 102.5q0 78 -40 131t-108 53h-251l2 -1210h-291v657h-86z" />
<glyph unicode="&#xe0;" horiz-adv-x="1241" d="M61 305q0 139 83 230.5t208 91.5h496v57q0 27 -9.5 46.5t-29.5 45.5q-29 33 -59.5 42t-85.5 9h-531v234h455h88q150 0 223.5 -25.5t126.5 -77.5q68 -68 90.5 -147.5t22.5 -204.5v-608h-766q-129 0 -220.5 87t-91.5 220zM295 1430h338l205 -300h-222zM362 315 q0 -43 35 -71.5t80 -28.5h369v209h-361q-51 0 -87 -29.5t-36 -79.5z" />
<glyph unicode="&#xe1;" horiz-adv-x="1241" d="M61 305q0 139 83 230.5t208 91.5h496v57q0 27 -9.5 46.5t-29.5 45.5q-29 33 -59.5 42t-85.5 9h-531v234h455h88q150 0 223.5 -25.5t126.5 -77.5q68 -68 90.5 -147.5t22.5 -204.5v-608h-766q-129 0 -220.5 87t-91.5 220zM353 1130l208 300h338l-323 -300h-223zM362 315 q0 -43 35 -71.5t80 -28.5h369v209h-361q-51 0 -87 -29.5t-36 -79.5z" />
<glyph unicode="&#xe2;" horiz-adv-x="1241" d="M61 305q0 139 83 230.5t208 91.5h496v57q0 27 -9.5 46.5t-29.5 45.5q-29 33 -59.5 42t-85.5 9h-531v234h455h88q150 0 223.5 -25.5t126.5 -77.5q68 -68 90.5 -147.5t22.5 -204.5v-608h-766q-129 0 -220.5 87t-91.5 220zM213 1130l250 300h275l250 -300h-248l-139 168 l-140 -168h-248zM362 315q0 -43 35 -71.5t80 -28.5h369v209h-361q-51 0 -87 -29.5t-36 -79.5z" />
<glyph unicode="&#xe3;" horiz-adv-x="1241" d="M61 305q0 139 83 230.5t208 91.5h496v57q0 27 -9.5 46.5t-29.5 45.5q-29 33 -59.5 42t-85.5 9h-531v234h455h88q150 0 223.5 -25.5t126.5 -77.5q68 -68 90.5 -147.5t22.5 -204.5v-608h-766q-129 0 -220.5 87t-91.5 220zM190 1151q10 43 21 86q18 63 45 104q35 49 82 78 t118 29q31 0 144.5 -46.5t150.5 -46.5q47 0 76 31q18 20 29 62h141q-20 -141 -83.5 -217t-156.5 -76q-63 0 -149 29.5t-172 62.5q-37 0 -65.5 -26.5t-37.5 -69.5h-143zM362 315q0 -43 35 -71.5t80 -28.5h369v209h-361q-51 0 -87 -29.5t-36 -79.5z" />
<glyph unicode="&#xe4;" horiz-adv-x="1241" d="M61 305q0 139 83 230.5t208 91.5h496v57q0 27 -9.5 46.5t-29.5 45.5q-29 33 -59.5 42t-85.5 9h-531v234h455h88q150 0 223.5 -25.5t126.5 -77.5q68 -68 90.5 -147.5t22.5 -204.5v-608h-766q-129 0 -220.5 87t-91.5 220zM254 1151v235h277v-235h-277zM362 315 q0 -43 35 -71.5t80 -28.5h369v209h-361q-51 0 -87 -29.5t-36 -79.5zM682 1151v235h277v-235h-277z" />
<glyph unicode="&#xe5;" horiz-adv-x="1241" d="M61 305q0 139 83 230.5t208 91.5h496v57q0 27 -9.5 46.5t-29.5 45.5q-29 33 -59.5 42t-85.5 9h-531v234h330q-37 29 -58.5 68.5t-21.5 89.5q0 92 73.5 153.5t161.5 61.5q90 0 164 -60.5t74 -154.5q0 -51 -21.5 -90t-62.5 -72q74 0 138.5 -23.5t115.5 -75.5 q68 -68 90.5 -147.5t22.5 -204.5v-608h-766q-129 0 -220.5 87t-91.5 220zM362 315q0 -43 35 -71.5t80 -28.5h369v209h-361q-51 0 -87 -29.5t-36 -79.5zM504 1219q0 -45 33.5 -77t80.5 -32q49 0 82 31t33 78q0 43 -33.5 74.5t-81.5 31.5q-49 0 -81.5 -30.5t-32.5 -75.5z" />
<glyph unicode="&#xe6;" horiz-adv-x="1867" d="M61 305q0 139 83 230.5t208 91.5h496v57q0 27 -9.5 46.5t-29.5 45.5q-29 33 -59.5 42t-85.5 9h-531v234h455h88q150 0 223.5 -25.5t126.5 -77.5l12 -12q131 115 277 115h475v-219h-348q-66 0 -112 -11.5t-85 -44.5q-72 -61 -71 -165h614v-222h-612q0 -49 11 -82.5 t46 -67.5t83 -45t118 -11h358v-199l-653 4h-766q-129 0 -220.5 87t-91.5 220zM362 315q0 -43 35 -71.5t80 -28.5h369v209h-361q-51 0 -87 -29.5t-36 -79.5z" />
<glyph unicode="&#xe7;" horiz-adv-x="1114" d="M61 524q0 227 136 377q145 160 399 160h444v-246h-403q-113 0 -192.5 -90t-79.5 -207q0 -119 75.5 -205t188.5 -86h411v-227h-370l-39 -53q16 0 37.5 5t27.5 5q68 0 119 -31q74 -43 74 -131t-78 -145.5t-195 -57.5q-61 0 -111 10.5t-140 41.5l47 98q53 -14 95 -23.5 t73 -9.5q39 0 71.5 21.5t32.5 58.5t-24.5 55.5t-61.5 18.5t-88 -15l-45 41l78 113q-223 0 -352.5 146.5t-129.5 375.5z" />
<glyph unicode="&#xe8;" horiz-adv-x="1110" d="M61 512q0 223 146.5 386t327.5 163h475v-219h-348q-66 0 -112 -11.5t-85 -44.5q-72 -61 -72 -165h615v-222h-613q0 -49 11.5 -82.5t46 -67.5t83 -45t117.5 -11h359v-199h-500q-182 0 -316.5 156.5t-134.5 361.5zM344 1430h338l205 -300h-222z" />
<glyph unicode="&#xe9;" horiz-adv-x="1110" d="M61 512q0 223 146.5 386t327.5 163h475v-219h-348q-66 0 -112 -11.5t-85 -44.5q-72 -61 -72 -165h615v-222h-613q0 -49 11.5 -82.5t46 -67.5t83 -45t117.5 -11h359v-199h-500q-182 0 -316.5 156.5t-134.5 361.5zM365 1130l208 300h338l-323 -300h-223z" />
<glyph unicode="&#xea;" horiz-adv-x="1110" d="M61 512q0 223 146.5 386t327.5 163h475v-219h-348q-66 0 -112 -11.5t-85 -44.5q-72 -61 -72 -165h615v-222h-613q0 -49 11.5 -82.5t46 -67.5t83 -45t117.5 -11h359v-199h-500q-182 0 -316.5 156.5t-134.5 361.5zM213 1130l250 300h275l250 -300h-248l-139 168l-140 -168 h-248z" />
<glyph unicode="&#xeb;" horiz-adv-x="1110" d="M61 512q0 223 146.5 386t327.5 163h475v-219h-348q-66 0 -112 -11.5t-85 -44.5q-72 -61 -72 -165h615v-222h-613q0 -49 11.5 -82.5t46 -67.5t83 -45t117.5 -11h359v-199h-500q-182 0 -316.5 156.5t-134.5 361.5zM266 1151v235h277v-235h-277zM694 1151v235h277v-235h-277 z" />
<glyph unicode="&#xec;" horiz-adv-x="491" d="M-31 1430h338l205 -300h-222zM102 0v1061h287v-1061h-287z" />
<glyph unicode="&#xed;" horiz-adv-x="491" d="M-28 1130l208 300h338l-323 -300h-223zM102 0v1061h287v-1061h-287z" />
<glyph unicode="&#xee;" horiz-adv-x="491" d="M-138 1130l250 300h275l250 -300h-248l-139 168l-140 -168h-248zM102 0v1061h287v-1061h-287z" />
<glyph unicode="&#xef;" horiz-adv-x="491" d="M-97 1151v235h277v-235h-277zM102 0v1061h287v-1061h-287zM331 1151v235h277v-235h-277z" />
<glyph unicode="&#xf1;" horiz-adv-x="1198" d="M102 0v1061h545q145 0 211 -17q102 -25 164 -108q70 -98 70 -215v-721h-285v698q0 27 -12.5 48.5t-34.5 41.5q-41 35 -94 35h-279v-823h-285zM135 1151q10 43 21 86q18 63 45 104q35 49 82 78t118 29q31 0 144.5 -46.5t150.5 -46.5q47 0 76 31q18 20 29 62h141 q-20 -141 -83.5 -217t-156.5 -76q-63 0 -149 29.5t-172 62.5q-37 0 -65.5 -26.5t-37.5 -69.5h-143z" />
<glyph unicode="&#xf2;" horiz-adv-x="1349" d="M61 539q0 250 193 393q172 129 424 129q276 0 443 -138t167 -388q0 -276 -176 -424q-162 -135 -440 -136q-279 0 -432 123q-178 141 -179 441zM377 526q0 -156 84 -248t217 -92q152 0 225 97q68 88 68 254q0 129 -81 216t-220 87q-127 0 -210 -89t-83 -225zM393 1430h338 l205 -300h-222z" />
<glyph unicode="&#xf3;" horiz-adv-x="1349" d="M61 539q0 250 193 393q172 129 424 129q276 0 443 -138t167 -388q0 -276 -176 -424q-162 -135 -440 -136q-279 0 -432 123q-178 141 -179 441zM377 526q0 -156 84 -248t217 -92q152 0 225 97q68 88 68 254q0 129 -81 216t-220 87q-127 0 -210 -89t-83 -225zM396 1130 l208 300h338l-323 -300h-223z" />
<glyph unicode="&#xf4;" horiz-adv-x="1349" d="M61 539q0 250 193 393q172 129 424 129q276 0 443 -138t167 -388q0 -276 -176 -424q-162 -135 -440 -136q-279 0 -432 123q-178 141 -179 441zM280 1130l250 300h275l250 -300h-248l-139 168l-140 -168h-248zM377 526q0 -156 84 -248t217 -92q152 0 225 97q68 88 68 254 q0 129 -81 216t-220 87q-127 0 -210 -89t-83 -225z" />
<glyph unicode="&#xf5;" horiz-adv-x="1349" d="M61 539q0 250 193 393q172 129 424 129q276 0 443 -138t167 -388q0 -276 -176 -424q-162 -135 -440 -136q-279 0 -432 123q-178 141 -179 441zM258 1151q10 43 21 86q18 63 45 104q35 49 82 78t118 29q31 0 144.5 -46.5t150.5 -46.5q47 0 76 31q18 20 29 62h141 q-20 -141 -83.5 -217t-156.5 -76q-63 0 -149 29.5t-172 62.5q-37 0 -65.5 -26.5t-37.5 -69.5h-143zM377 526q0 -156 84 -248t217 -92q152 0 225 97q68 88 68 254q0 129 -81 216t-220 87q-127 0 -210 -89t-83 -225z" />
<glyph unicode="&#xf6;" horiz-adv-x="1349" d="M61 539q0 250 193 393q172 129 424 129q276 0 443 -138t167 -388q0 -276 -176 -424q-162 -135 -440 -136q-279 0 -432 123q-178 141 -179 441zM321 1151v235h277v-235h-277zM377 526q0 -156 84 -248t217 -92q152 0 225 97q68 88 68 254q0 129 -81 216t-220 87 q-127 0 -210 -89t-83 -225zM749 1151v235h277v-235h-277z" />
<glyph unicode="&#xf7;" horiz-adv-x="1169" d="M20 500v121h1121v-121h-1121zM451 272q0 47 30.5 80t83.5 37l6 2q49 0 85 -36t36 -85t-35.5 -82.5t-85.5 -33.5q-51 0 -85.5 32.5t-34.5 85.5zM451 852q0 45 30.5 80t75.5 39h12q53 0 88 -33t35 -86q0 -49 -34.5 -84t-86.5 -35q-51 0 -85.5 35t-34.5 84z" />
<glyph unicode="&#xf8;" horiz-adv-x="1349" d="M61 539q0 250 193 393q172 129 424 129q188 0 330 -66l161 189h113l-201 -232q98 -63 152.5 -170.5t54.5 -246.5q0 -281 -164 -429q-154 -139 -428 -139q-113 0 -209 21.5t-180 68.5l-135 -155l-109 -2l177 204q-84 70 -131.5 178.5t-47.5 256.5zM377 526q0 -119 51 -204 l408 473q-72 45 -166 45q-127 0 -210 -89t-83 -225zM479 256q84 -78 199 -78q152 0 225 101q68 92 68 258q0 123 -72 204z" />
<glyph unicode="&#xf9;" horiz-adv-x="1193" d="M102 336v725h285v-703q0 -51 45 -88t96 -37h279v828h285v-1061h-545q-150 0 -211 14q-102 25 -164 107q-70 94 -70 215zM289 1430h338l205 -300h-222z" />
<glyph unicode="&#xfa;" horiz-adv-x="1193" d="M102 336v725h285v-703q0 -51 45 -88t96 -37h279v828h285v-1061h-545q-150 0 -211 14q-102 25 -164 107q-70 94 -70 215zM359 1130l208 300h338l-323 -300h-223z" />
<glyph unicode="&#xfb;" horiz-adv-x="1193" d="M102 336v725h285v-703q0 -51 45 -88t96 -37h279v828h285v-1061h-545q-150 0 -211 14q-102 25 -164 107q-70 94 -70 215zM213 1130l250 300h275l250 -300h-248l-139 168l-140 -168h-248z" />
<glyph unicode="&#xfc;" horiz-adv-x="1193" d="M102 336v725h285v-703q0 -51 45 -88t96 -37h279v828h285v-1061h-545q-150 0 -211 14q-102 25 -164 107q-70 94 -70 215zM266 1151v235h277v-235h-277zM694 1151v235h277v-235h-277z" />
<glyph unicode="&#xfd;" horiz-adv-x="0" />
<glyph unicode="&#xff;" horiz-adv-x="1226" d="M102 367v694h299l-2 -680q0 -41 5.5 -61.5t29 -45t54 -34t75.5 -9.5h260v830h295l-2 -1106q0 -70 -28.5 -126t-75.5 -99q-72 -61 -148 -84t-182 -23h-557v221h580q39 0 73 27q47 37 47 86v41h-327q-94 0 -160 21.5t-127 82.5q-109 106 -109 265zM254 1151v235h277v-235 h-277zM682 1151v235h277v-235h-277z" />
<glyph unicode="&#x152;" horiz-adv-x="2682" d="M61 735q0 334 187 520q203 203 606 203q231 0 386 -50t245 -151q59 59 127 95q88 45 169 63.5t185 18.5h647v-254h-598q-80 0 -134 -21.5t-107.5 -77t-74 -107.5t-20.5 -130h942v-254h-938q0 -70 18.5 -122t67 -107.5t100.5 -84t124 -28.5h628v-248h-698q-162 0 -311 74 q-80 41 -142 104q-102 -111 -268 -160q-143 -43 -342 -43q-399 0 -590 168q-209 184 -209 592zM422 727q0 -231 74 -342q102 -154 378 -154q233 0 328 150q74 117 74 346q0 211 -100 336q-113 139 -334 139q-217 0 -328 -149q-92 -125 -92 -326z" />
<glyph unicode="&#x153;" horiz-adv-x="1996" d="M61 539q0 250 193 393q172 129 424 129q293 0 455 -150q139 150 313 150h475v-219h-348q-66 0 -112 -11.5t-85 -44.5q-72 -61 -71 -165h614v-222h-612q0 -49 11 -82.5t46 -67.5t83 -45t118 -11h358v-199h-500q-80 0 -152.5 31.5t-133.5 91.5q-76 -76 -187.5 -113 t-253.5 -37q-281 0 -444 127q-190 147 -191 445zM377 526q0 -156 85 -252t216 -96q152 0 225 101q68 92 68 258q0 129 -81 216t-220 87q-127 0 -210 -89t-83 -225z" />
<glyph unicode="&#x178;" horiz-adv-x="1439" d="M-86 1434h416l372 -572l379 572h424l-631 -830v-608h-337v608zM346 1507v235h277v-235h-277zM774 1507v235h277v-235h-277z" />
<glyph unicode="&#x2c6;" horiz-adv-x="731" d="M-23 1130l250 300h275l250 -300h-248l-139 168l-140 -168h-248z" />
<glyph unicode="&#x2dc;" horiz-adv-x="731" d="M-39 1137q10 43 21 86q18 63 45 104q35 49 82 78t118 29q31 0 144.5 -46.5t150.5 -46.5q47 0 76 31q18 20 29 62h141q-20 -141 -83.5 -217t-156.5 -76q-63 0 -149 29.5t-172 62.5q-37 0 -65.5 -26.5t-37.5 -69.5h-143z" />
<glyph unicode="&#x2000;" horiz-adv-x="896" />
<glyph unicode="&#x2001;" horiz-adv-x="1792" />
<glyph unicode="&#x2002;" horiz-adv-x="896" />
<glyph unicode="&#x2003;" horiz-adv-x="1792" />
<glyph unicode="&#x2004;" horiz-adv-x="597" />
<glyph unicode="&#x2005;" horiz-adv-x="448" />
<glyph unicode="&#x2006;" horiz-adv-x="298" />
<glyph unicode="&#x2007;" horiz-adv-x="298" />
<glyph unicode="&#x2008;" horiz-adv-x="224" />
<glyph unicode="&#x2009;" horiz-adv-x="358" />
<glyph unicode="&#x200a;" horiz-adv-x="99" />
<glyph unicode="&#x2010;" horiz-adv-x="929" d="M92 539v280h739l-2 -280h-737z" />
<glyph unicode="&#x2011;" horiz-adv-x="929" d="M92 539v280h739l-2 -280h-737z" />
<glyph unicode="&#x2012;" horiz-adv-x="929" d="M92 539v280h739l-2 -280h-737z" />
<glyph unicode="&#x2013;" horiz-adv-x="1024" d="M0 539v280h1024v-280h-1024z" />
<glyph unicode="&#x2014;" horiz-adv-x="2048" d="M0 539v280h2048v-280h-2048z" />
<glyph unicode="&#x2018;" d="M39 1434h326l92 -242h-215z" />
<glyph unicode="&#x2019;" d="M55 1186l90 244h326l-203 -244h-213z" />
<glyph unicode="&#x201c;" horiz-adv-x="1034" d="M61 1438h326l92 -242h-215zM545 1438h325l99 -250h-213z" />
<glyph unicode="&#x201d;" horiz-adv-x="1091" d="M84 1188l100 250h326l-211 -250h-215zM575 1196l89 242h327l-203 -242h-213z" />
<glyph unicode="&#x2022;" horiz-adv-x="698" d="M20 719q0 139 94.5 233.5t235.5 94.5q135 0 231.5 -94.5t96.5 -233.5t-96.5 -235.5t-231.5 -96.5q-139 0 -234.5 95.5t-95.5 236.5z" />
<glyph unicode="&#x2026;" horiz-adv-x="1536" d="M109 0v260h288v-260h-288zM621 0v260h288v-260h-288zM1133 0v260h288v-260h-288z" />
<glyph unicode="&#x202f;" horiz-adv-x="358" />
<glyph unicode="&#x205f;" horiz-adv-x="448" />
<glyph unicode="&#x2122;" horiz-adv-x="1775" d="M51 1315v119h697v-119h-269v-598h-166v598h-262zM815 717v717h240l211 -568l200 568h250v-717h-155v551l-203 -551h-184l-209 563v-563h-150z" />
<glyph unicode="&#x25fc;" horiz-adv-x="1064" d="M0 0v1065h1065v-1065h-1065z" />
</font>
</defs>
</svg>
